<?xml version="1.0" standalone="no"?>
<!DOCTYPE svg PUBLIC "-//W3C//DTD SVG 1.1//EN" "http://www.w3.org/Graphics/SVG/1.1/DTD/svg11.dtd" >
<svg xmlns="http://www.w3.org/2000/svg">
<metadata>Generated by IcoMoon</metadata>
<defs>
<font id="icomoon" horiz-adv-x="1024">
<font-face units-per-em="1024" ascent="960" descent="-64" />
<missing-glyph horiz-adv-x="1024" />
<glyph unicode="&#x20;" horiz-adv-x="512" d="" />
<glyph unicode="&#xe900;" horiz-adv-x="3083" d="M1492.704 307.508h-17.044v-100.796c0-23.971 0-50.285-36.315-50.285-33.927 0-33.927 28.697-33.927 55.742v97.953l-49.825-5.457v-5.21c23.030-3.094 23.741-3.349 23.741-23.261v-75.884c0-35.349 15.187-55.055 56.913-55.055 53.613 0 56.457 32.276 56.457 64.046v98.207z" />
<glyph unicode="&#xe901;" horiz-adv-x="3083" d="M1564.709 147.868h14.981v134.978h0.481l78.271-134.978h22.78v159.636h-14.981v-129.036h-0.481l-74.692 129.036h-50.030v-5.206c20.368-4.039 23.671-3.078 23.671-25.167v-129.262z" />
<glyph unicode="&#xe902;" horiz-adv-x="3083" d="M1755.112 147.868h26.104v162.253l-49.825-5.461v-5.206c23.035-3.098 23.721-3.353 23.721-23.261v-128.326z" />
<glyph unicode="&#xe903;" horiz-adv-x="3083" d="M1896.899 147.868h20.643l57.903 159.636h-15.462l-45.26-129.973h-0.505l-46.501 129.973h-45.991v-5.206c18.971-3.579 21.083-3.579 28.672-25.167l46.501-129.262z" />
<glyph unicode="&#xe904;" horiz-adv-x="3083" d="M2032.222 147.868h94.669l0.715 34.388h-6.656c-1.418-18.49-7.844-23.215-21.354-23.215h-26.314c-11.883 0-14.977 0.431-14.977 13.74v52.898h28.721c14.242 0 19.476-7.593 19.476-20.417h6.603v49.825h-6.603c-1.471-7.823-3.102-18.26-19.476-18.26h-28.721v47.211c0 11.378 3.094 12.319 14.977 12.319h18.49c15.667 0 25.623-4.976 25.623-23.951h6.652l-0.731 35.098h-113.62v-5.206c21.839-3.579 22.525-3.579 22.525-27.024v-127.405z" />
<glyph unicode="&#xe905;" horiz-adv-x="3083" d="M2216.864 275.023c0 17.064 0 21.334 15.897 21.334 19.912 0 34.593-7.088 34.593-32.736 0-26.564-21.584-30.833-36.98-30.833h-13.51v42.236zM2190.76 147.868h26.104v73.772h14.706l42.001-73.772h27.25l-43.628 78.041c18.741 3.073 36.29 12.088 36.29 39.158 0 42.437-49.093 42.437-66.893 42.437h-58.359v-5.206c22.048-3.579 22.529-3.579 22.529-27.024v-127.405z" />
<glyph unicode="&#xe906;" horiz-adv-x="3083" d="M2440.159 305.852c-6.147 1.196-21.588 4.265-37.946 4.265-33.467 0-53.379-14.932-53.379-41.015 0-50.075 77.1-46.497 77.1-84.923 0-21.584-14.706-27.756-29.683-27.756-18.926 0-37.942 9.956-45.26 14.221v-19.201c4.955-1.192 23.236-6.192 41.5-6.192 32.732 0 59.551 12.824 59.551 46.751 0 50.741-77.1 47.437-77.1 83.958 0 15.671 10.182 23.010 22.776 23.010 18.49 0 36.039-7.593 42.441-10.667v17.549z" />
<glyph unicode="&#xe907;" horiz-adv-x="3083" d="M2511.934 147.868h26.108v162.253l-49.804-5.461v-5.206c22.985-3.098 23.696-3.353 23.696-23.261v-128.326z" />
<glyph unicode="&#xe908;" horiz-adv-x="3083" d="M2638.813 147.868h26.059v148.488h16.128c18.281 0 25.874-5.691 25.874-23.951h6.656l-0.986 35.098h-121.443l-0.941-34.388h6.648c1.401 17.319 6.907 23.24 25.623 23.24h16.382v-148.488z" />
<glyph unicode="&#xe909;" horiz-adv-x="3083" d="M2800.216 147.868h26.129v74.486l50.766 85.149h-15.182l-41.549-69.967-40.325 69.967h-44.113v-5.206c11.838-1.907 17.8-1.907 26.079-15.897l38.197-64.046v-74.486z" />
<glyph unicode="&#xe90a;" horiz-adv-x="3083" d="M1236.168 586.701c-6.196 1.196-21.588 4.269-37.942 4.269-33.467 0-53.383-14.961-53.383-41.015 0-50.055 77.079-46.525 77.079-84.927 0-21.609-14.726-27.756-29.617-27.756-19.016 0-37.962 9.956-45.35 14.246v-19.222c4.98-1.196 23.261-6.172 41.521-6.172 32.711 0 59.53 12.799 59.53 46.727 0 50.766-77.079 47.417-77.079 83.982 0 15.647 10.186 22.985 22.755 22.985 18.539 0 36.085-7.593 42.486-10.642v17.525z" />
<glyph unicode="&#xe90b;" horiz-adv-x="3083" d="M1333.549 428.741h26.079v148.468h16.173c18.239 0 25.833-5.666 25.833-23.951h6.652l-0.941 35.098h-121.439l-0.99-34.367h6.652c1.422 17.303 6.862 23.219 25.623 23.219h16.358v-148.468z" />
<glyph unicode="&#xe90c;" horiz-adv-x="3083" d="M1460.614 428.741h94.649l0.686 34.388h-6.628c-1.446-18.511-7.869-23.24-21.358-23.24h-26.334c-11.838 0-14.936 0.46-14.936 13.744v52.898h28.701c14.221 0 19.452-7.593 19.452-20.393h6.607v49.825h-6.607c-1.422-7.844-3.098-18.305-19.452-18.305h-28.701v47.232c0 11.378 3.098 12.319 14.936 12.319h18.535c15.622 0 25.578-4.98 25.578-23.951h6.652l-0.69 35.098h-113.665v-5.206c21.839-3.558 22.574-3.558 22.574-27.045v-127.364z" />
<glyph unicode="&#xe90d;" horiz-adv-x="3083" d="M1620.294 428.741h96.301l0.735 34.388h-6.652c0-22.295-13.029-23.24-27.986-23.24h-20.417c-15.873 0-15.873 0-15.873 17.783v133.302l-49.825-5.44v-5.231c23.006-3.094 23.717-3.324 23.717-23.261v-128.301z" />
<glyph unicode="&#xe90e;" horiz-adv-x="3083" d="M1778.578 428.741h96.301l0.735 34.388h-6.652c0-22.295-13.009-23.24-27.986-23.24h-20.421c-15.873 0-15.873 0-15.873 17.783v133.302l-49.78-5.44v-5.231c22.989-3.094 23.676-3.324 23.676-23.261v-128.301z" />
<glyph unicode="&#xe90f;" horiz-adv-x="3083" d="M1941.382 428.741h94.649l0.69 34.388h-6.611c-1.418-18.511-7.844-23.24-21.354-23.24h-26.359c-11.834 0-14.887 0.46-14.887 13.744v52.898h28.676c14.221 0 19.427-7.593 19.427-20.393h6.652v49.825h-6.652c-1.376-7.844-3.053-18.305-19.427-18.305h-28.676v47.232c0 11.378 3.053 12.319 14.887 12.319h18.535c15.667 0 25.623-4.98 25.623-23.951h6.607l-0.69 35.098h-113.62v-5.206c21.843-3.558 22.529-3.558 22.529-27.045v-127.364z" />
<glyph unicode="&#xe910;" horiz-adv-x="3083" d="M2100.648 428.741h14.911v134.953h0.481l78.275-134.953h22.776v159.615h-14.956v-129.012h-0.436l-74.737 129.012h-50.055v-5.206c20.397-4.014 23.741-3.098 23.741-25.142v-129.267z" />
<glyph unicode="&#xe911;" horiz-adv-x="3083" d="M2316.169 507.472h21.559c20.853 0 38.447-8.304 38.447-31.774 0-24.177-11.193-35.809-37.231-35.809-13.095 0-22.776 0-22.776 9.705v57.878zM2316.169 564.891c0 11.628 4.014 12.319 18.256 12.319 21.588 0 33.656-7.113 33.656-28.446 0-23.491-15.622-30.143-36.039-30.143h-15.873v46.271zM2290.060 428.741h44.574c19.497 0 67.604 0 67.604 42.441 0 30.118-19.661 38.903-36.524 42.256v0.431c11.632 3.788 28.446 12.824 28.446 36.085 0 32.004-28.902 38.402-56.177 38.402h-70.493v-5.206c22.090-3.558 22.57-3.558 22.57-27.045v-127.364z" />
<glyph unicode="&#xe912;" horiz-adv-x="3083" d="M2481.84 507.949c0 32.045 2.868 71.873 39.639 71.873 36.015 0 38.147-40.789 38.147-71.873 0-30.348-1.397-70.678-38.147-70.678-36.080 0-39.639 41.245-39.639 70.678zM2521.479 426.124c49.299 0 64.251 31.544 64.251 81.825 0 51.020-14.952 83.021-64.251 83.021-51.477 0-65.743-32-65.743-83.021 0-50.762 15.667-81.825 65.743-81.825z" />
<glyph unicode="&#xe913;" horiz-adv-x="3083" d="M2729.402 586.701c-6.192 1.196-21.584 4.269-37.942 4.269-33.467 0-53.379-14.961-53.379-41.015 0-50.055 77.075-46.525 77.075-84.927 0-21.609-14.726-27.756-29.613-27.756-19.016 0-37.966 9.956-45.35 14.246v-19.222c5.021-1.196 23.256-6.172 41.521-6.172 32.711 0 59.526 12.799 59.526 46.727 0 50.766-77.075 47.417-77.075 83.982 0 15.647 10.231 22.985 22.755 22.985 18.535 0 36.085-7.593 42.482-10.642v17.525z" />
<glyph unicode="&#xe914;" horiz-adv-x="3083" d="M2905.56 450.075c-6.172-4.52-20.647-12.799-41.27-12.799-45.81 0-48.633 52.417-48.633 78.982 0 24.428 5.21 63.565 37.716 63.565 21.584 0 26.564-16.128 27.735-23.951h28.442c-2.568 18.971-17.044 35.102-54.024 35.102-52.919 0-65.948-36.754-65.948-80.658 0-53.128 18.716-84.188 67.329-84.188 23.511 0 42.688 6.422 48.654 8.785v15.162z" />
<glyph unicode="&#xe915;" horiz-adv-x="3083" d="M2966.598 428.741h26.104v77.535h64.506v-77.535h26.083v159.615h-26.083v-70.908h-64.506v73.525l-49.8-5.44v-5.231c22.295-2.359 23.696-4.516 23.696-23.261v-128.301z" />
<glyph unicode="&#xe916;" horiz-adv-x="3083" d="M1368.968 869.23h-17.068v-100.841c0-23.951 0-50.26-36.265-50.26-33.927 0-33.927 28.693-33.927 55.742v97.953l-49.825-5.436v-5.235c23.030-3.069 23.717-3.324 23.717-23.236v-75.908c0-35.349 15.187-55.031 56.937-55.031 53.609 0 56.432 32.255 56.432 64.025v98.228z" />
<glyph unicode="&#xe917;" horiz-adv-x="3083" d="M1440.998 709.59h14.956v134.953h0.481l78.275-134.953h22.776v159.636h-14.932v-129.057h-0.505l-74.717 129.057h-50.030v-5.231c20.393-4.039 23.696-3.069 23.696-25.142v-129.262z" />
<glyph unicode="&#xe918;" horiz-adv-x="3083" d="M1631.376 709.59h26.104v162.228l-49.8-5.436v-5.231c22.985-3.073 23.696-3.328 23.696-23.236v-128.326z" />
<glyph unicode="&#xe919;" horiz-adv-x="3083" d="M1773.187 709.59h20.647l57.854 159.636h-15.417l-45.305-129.998h-0.485l-46.472 129.998h-45.995v-5.231c18.926-3.554 21.083-3.554 28.676-25.142l46.497-129.262z" />
<glyph unicode="&#xe91a;" horiz-adv-x="3083" d="M1908.531 709.59h94.628l0.69 34.383h-6.611c-1.467-18.507-7.844-23.256-21.379-23.256h-26.314c-11.858 0-14.952 0.481-14.952 13.761v52.898h28.742c14.196 0 19.427-7.589 19.427-20.393h6.632v49.8h-6.632c-1.442-7.819-3.073-18.256-19.427-18.256h-28.742v47.211c0 11.373 3.094 12.339 14.952 12.339h18.515c15.643 0 25.623-4.98 25.623-23.951h6.632l-0.715 35.098h-113.64v-5.231c21.839-3.554 22.57-3.554 22.57-27.045v-127.36z" />
<glyph unicode="&#xe91b;" horiz-adv-x="3083" d="M2093.124 836.7c0 17.11 0 21.379 15.877 21.379 19.912 0 34.638-7.137 34.638-32.76 0-26.56-21.584-30.805-37.005-30.805h-13.51v42.186zM2067.020 709.59h26.104v73.747h14.706l41.977-73.747h27.3l-43.653 78.016c18.72 3.123 36.269 12.113 36.269 39.137 0 42.482-49.093 42.482-66.848 42.482h-58.359v-5.231c22.044-3.554 22.505-3.554 22.505-27.045v-127.36z" />
<glyph unicode="&#xe91c;" horiz-adv-x="3083" d="M2316.444 867.553c-6.196 1.192-21.588 4.265-37.942 4.265-33.471 0-53.404-14.932-53.404-41.036 0-50.059 77.075-46.48 77.075-84.927 0-21.564-14.681-27.731-29.638-27.731-18.971 0-37.942 9.956-45.284 14.246v-19.226c4.98-1.192 23.261-6.172 41.5-6.172 32.736 0 59.551 12.824 59.551 46.731 0 50.762-77.1 47.437-77.1 83.958 0 15.643 10.207 23.030 22.78 23.030 18.511 0 36.060-7.593 42.462-10.687v17.549z" />
<glyph unicode="&#xe91d;" horiz-adv-x="3083" d="M2388.223 709.59h26.083v162.228l-49.8-5.436v-5.231c22.985-3.073 23.717-3.328 23.717-23.236v-128.326z" />
<glyph unicode="&#xe91e;" horiz-adv-x="3083" d="M2515.053 709.59h26.133v148.488h16.078c18.305 0 25.899-5.691 25.899-23.951h6.628l-0.937 35.098h-121.468l-0.941-34.408h6.628c1.426 17.319 6.882 23.261 25.627 23.261h16.353v-148.488z" />
<glyph unicode="&#xe91f;" horiz-adv-x="3083" d="M2642.076 709.59h94.669l0.711 34.383h-6.652c-1.401-18.507-7.799-23.256-21.309-23.256h-26.359c-11.883 0-14.932 0.481-14.932 13.761v52.898h28.672c14.246 0 19.476-7.589 19.476-20.393h6.652v49.8h-6.652c-1.422-7.819-3.098-18.256-19.476-18.256h-28.672v47.211c0 11.373 3.049 12.339 14.932 12.339h18.49c15.667 0 25.623-4.98 25.623-23.951h6.652l-0.735 35.098h-113.575v-5.231c21.794-3.554 22.484-3.554 22.484-27.045v-127.36z" />
<glyph unicode="&#xe920;" horiz-adv-x="3083" d="M2802.763 709.59h26.079v162.228l-49.8-5.436v-5.231c22.985-3.073 23.721-3.328 23.721-23.236v-128.326z" />
<glyph unicode="&#xe921;" horiz-adv-x="3083" d="M2929.622 709.59h26.104v148.488h16.082c18.285 0 25.874-5.691 25.874-23.951h6.656l-0.986 35.098h-121.447l-0.892-34.408h6.607c1.422 17.319 6.903 23.261 25.623 23.261h16.378v-148.488z" />
<glyph unicode="&#xe922;" horiz-adv-x="3083" d="M838.671 488.797c17.685-19.637 30.648-41.245 38.907-64.781 8.625-23.195 12.935-50.285 12.98-81.299 0-73.821-33.627-140.985-71.224-190.194 0 0 75.263 211.412-157.322 292.686-25.553 10.186-54.805 21.379-87.791 33.562-32.962 12.549-61.453 24.337-85.404 35.353-47.142 21.194-83.842 48.88-110.156 83.037-25.919 34.548-38.858 79.512-38.858 134.888 0 31.815 6.467 61.453 19.431 88.958 12.935 27.485 31.404 52.007 55.351 73.615 22.78 20.417 49.685 36.311 80.724 47.713 31.014 11.793 63.429 17.664 97.196 17.664 38.447 0 72.81-5.872 103.068-17.664 30.648-11.793 58.499-25.529 83.637-41.245l30.073 52.212h40.674v-289.568h-42.486c-8.625 31.795-18.445 62.213-29.453 91.3-10.576 29.042-24.547 55.331-41.821 78.912-16.884 22.78-37.482 40.834-61.823 54.184-24.337 13.74-54.23 20.623-89.529 20.623-37.325 0-69.145-11.977-95.43-35.945-26.314-23.951-39.458-53.198-39.458-87.725 0-36.15 8.44-66.203 25.323-90.129 16.884-23.556 41.385-43.008 73.64-58.314 28.627-13.74 56.728-25.759 84.184-35.945 27.895-9.816 54.805-20.417 80.707-31.815 23.581-10.211 46.151-21.794 67.76-34.757 21.979-12.935 41.015-28.076 57.098-45.325z" />
<glyph unicode="&#xe923;" horiz-adv-x="3083" d="M715.922 35.945c25.783 12.799 60.722 46.090 66.433 51.867v-151.812h-782.355v1017.233h279.908c-25.488-24.452-45.33-51.887-59.666-82.306-15.667-33.266-23.536-69.165-23.536-107.633 0-67.078 15.667-121.488 47.072-163.33 31.819-41.364 76.274-74.877 133.351-100.57 28.972-13.305 63.425-27.571 103.409-42.757 39.893-14.776 75.358-28.31 106.236-40.67 45.165-18.079 79.138-44.689 101.987-79.857 22.825-34.729 34.227-72.259 34.227-112.679-0.045-27.595-3.809-52.072-11.402-73.455-7.158-20.919-17.894-39.659-33.562-54.916-75.127-73.221-191.566-72.49-234.533-55.787-48.128 18.671-185.448 69.461-266.928 341.846 93.318-245.224 243.873-359.625 376.944-320.902-54.87 1.307-82.766 1.101-93.157 27.641-8.99 23.035 9.841 37.025-10.527 41.43-18.971 4.105-43.587-18.811-41.981 10.046 1.031 18.17 58.495 62.488 17.409 94.604-29.843 23.33-44.294-25.923-67.21-6.287-15.667 13.424 49.66 163.929-9.085 167.003-33.175 1.742-36.36-55.926-54.004-43.267-8.99 6.426 19.661 91.99-28.693 104.675-33.151 8.694-31.474-49.89-44.574-43.263-13.079 6.607 5.091 55.947-22.689 63.084-34.959 8.97-27.435-42.416-47.988-43.768-20.577-1.311-38.287 38.928-66.433-8.349-17.479-29.457 31.54-68.775 22.135-81.139-9.36-12.343-67.329 4.429-63.425-41.43 3.279-38.081 64.091-29.773 65.032-42.507 0.986-12.754-48.403-29.662-42.897-44.298 20.647-55.331 133.988-5.781 155.095-54.045 12.66-29.017-47.852-60.627-4.544-84.142 23.766-12.89 49.323 32.481 89.422 16.333 36.886-14.841-15.026-38.953 8.99-50.766 27.324-13.42 77.079-0.136 94.078-11.834 51.177-35.193 215.587-39.503 307.458 6.007z" />
<glyph unicode="&#xe924;" glyph-name="facebook" horiz-adv-x="1021" d="M509.059 952.786c-278.425 0-504.49-226.070-504.49-504.495 0-278.824 226.065-504.889 504.495-504.889 278.819 0 504.889 226.065 504.889 504.889 0 278.74-226.070 504.495-504.893 504.495v0zM639.721 448.291h-82.871v-302.791h-113.392v302.791h-75.776v104.084l75.776 0.315-0.311 61.269c0 85 23.105 137.044 123.558 137.044h83.502v-104.4h-52.438c-38.794 0-40.923-14.748-40.923-41.869v-52.044h93.914l-11.038-104.4z" />
<glyph unicode="&#xe925;" glyph-name="googleplus" horiz-adv-x="1021" d="M446.139 365.161c-3.224 2.151-6.518 4.398-9.938 6.842-10.065 3.022-20.678 4.669-31.62 4.77h-1.375c-50.227 0-94.229-30.345-94.229-65.058 0-37.761 37.761-67.335 85.863-67.335 63.511 0 95.705 21.953 95.705 65.084 0 4.095-0.499 8.392-1.476 12.588-4.292 16.785-19.702 27.222-42.929 43.109v0zM410.524 496.779h0.101c12.015 0 22.155 4.77 29.969 13.762 12.286 14.034 17.757 37.064 14.538 61.461-5.668 43.705-36.889 80.094-69.481 80.97l-1.349 0.101c-11.515 0-21.752-4.796-29.57-13.762-12.185-13.863-17.258-35.816-14.135-60.191 5.742-43.608 37.638-81.268 69.556-82.341h0.372zM512.572 943.408c-273.454 0-495.98-222.553-495.98-496.006 0-273.55 222.526-496.081 495.98-496.081 273.55 0 496.102 222.526 496.102 496.081 0 273.454-222.553 496.006-496.102 496.006v0zM455.403 205.844c-18.729-5.444-39.013-8.191-60.288-8.191-23.701 0-46.429 2.746-67.707 8.090-41.059 10.363-71.404 30.069-85.64 55.421-6.145 10.937-9.189 22.553-9.189 34.739 0 12.387 2.948 25.076 8.791 37.564 22.527 48.001 81.943 80.296 147.701 80.296h1.848c-5.37 9.365-7.893 19.106-7.893 29.347 0 5.072 0.675 10.267 2.050 15.611-68.982 1.572-120.58 51.996-120.58 118.63 0 47.029 37.564 92.784 91.312 111.316 16.11 5.571 32.492 8.392 48.575 8.392h147.526c4.971 0 9.439-3.219 11.016-7.994 1.572-4.77-0.201-10.039-4.196-12.987l-32.965-23.902c-2.050-1.349-4.398-2.124-6.842-2.124h-11.787c15.212-18.256 24.174-44.405 24.174-73.678 0-32.294-16.386-62.811-46.127-86.038-22.925-17.954-23.902-22.925-23.902-33.065 0.276-5.668 16.285-24.003 33.941-36.491 41.16-29.071 56.494-57.568 56.494-105.271-0.009-49.648-37.87-92.683-96.314-109.664v0zM788.469 458.817c0-6.443-5.169-11.612-11.515-11.612h-83.892v-83.791c0-6.443-5.169-11.612-11.511-11.612h-23.902c-6.443 0-11.612 5.169-11.612 11.612v83.791h-83.791c-6.342 0-11.612 5.169-11.612 11.612v23.801c0 6.443 5.269 11.712 11.612 11.712h83.791v83.717c0 6.443 5.169 11.612 11.612 11.612h23.902c6.342 0 11.511-5.169 11.511-11.612v-83.717h83.892c6.342 0 11.515-5.269 11.515-11.612v-23.902z" />
<glyph unicode="&#xe926;" glyph-name="linkedin" horiz-adv-x="1021" d="M509.821 954.017c-277.273 0-502.024-224.786-502.024-502.024 0-277.242 224.751-502.029 502.029-502.029s502.033 224.782 502.033 502.029c-0.004 277.238-224.756 502.024-502.037 502.024zM337.258 702.998c25.965 0 47.055-21.073 47.055-47.055 0-25.987-21.090-47.073-47.055-47.073-25.987 0-47.073 21.086-47.073 47.073 0.004 25.965 21.086 47.055 47.073 47.055zM384.699 264.231h-94.006v313.339h94.006v-313.339zM761.067 264.266h-94.010v170.846c0 35.041-10.162 70.090-51.392 70.090-41.234 0-74.151-35.054-74.151-70.984v-169.991h-94.347v314.372h94.347v-43.621c28.961 36.771 69.788 53.433 115.415 53.433 45.641 0 104.141-22.768 104.141-146.313v-177.832z" />
<glyph unicode="&#xe927;" glyph-name="twitter" horiz-adv-x="1021" d="M508.761 951.919c-278.57 0-504.381-225.811-504.381-504.376 0-278.618 225.811-504.447 504.381-504.447 278.618 0 504.447 225.824 504.447 504.447-0.004 278.565-225.829 504.376-504.447 504.376v0zM713.911 538.714c0.197-4.257 0.302-8.563 0.302-12.873 0-131.263-99.949-282.678-282.665-282.678-56.087 0-108.328 16.474-152.243 44.633 7.748-0.92 15.646-1.38 23.644-1.38 46.538 0 89.389 15.908 123.409 42.531-43.464 0.828-80.151 29.557-92.814 69.013 6.093-1.183 12.308-1.8 18.668-1.8 9.089 0 17.862 1.183 26.18 3.495-45.408 9.128-79.696 49.259-79.696 97.387 0 0.46 0 0.88 0.053 1.288 13.346-7.446 28.69-11.901 44.949-12.466-26.627 17.849-44.173 48.22-44.173 82.701 0 18.217 4.875 35.255 13.438 49.929 49.009-60.082 122.226-99.647 204.782-103.799-1.695 7.288-2.562 14.884-2.562 22.671 0 54.852 44.475 99.345 99.332 99.345 28.584 0 54.396-12.058 72.508-31.405 22.619 4.468 43.91 12.729 63.104 24.117-7.433-23.184-23.184-42.688-43.713-54.944 20.122 2.405 39.263 7.735 57.112 15.646-13.346-19.908-30.174-37.406-49.613-51.409v0z" />
<glyph unicode="&#xe928;" glyph-name="alarm-clock.eps" horiz-adv-x="1021" d="M704.253 446.71h-125.7c-6.447 24.585-25.707 43.845-50.384 50.292v178.572c0 9.728-7.902 17.63-17.63 17.63-9.706 0-17.542-7.902-17.542-17.63v-178.572c-30.332-7.924-52.868-35.26-52.868-67.922 0-38.869 31.651-70.414 70.414-70.414 32.772 0 60.112 22.518 68.014 52.78h125.7c9.728 0 17.63 7.902 17.63 17.63-0.004 9.711-7.906 17.634-17.634 17.634v0zM510.539 393.816c-19.347 0-35.15 15.825-35.15 35.26s15.803 35.172 35.15 35.172c19.434 0 35.26-15.738 35.26-35.172 0-19.43-15.825-35.26-35.26-35.26v0zM882.317 788.024l72.127-72.039c3.368-3.346 7.836-5.151 12.479-5.151s9.111 1.805 12.457 5.151c55.706 55.706 55.706 146.413 0 202.233-55.798 55.706-146.501 55.706-202.299 0-3.281-3.368-5.173-7.836-5.173-12.479 0-4.731 1.892-9.198 5.173-12.457l80.383-80.318-29.912-29.912c-84.19 75.408-195.256 121.412-316.93 121.412-121.653 0-232.741-46-316.908-121.412l-29.999 29.912 80.388 80.318c3.259 3.346 5.151 7.726 5.151 12.457 0 4.643-1.892 9.111-5.151 12.479-55.798 55.71-146.501 55.71-202.321 0-55.71-55.82-55.71-146.523 0-202.233 3.368-3.346 7.836-5.151 12.479-5.151 4.731 0 9.198 1.805 12.457 5.151l72.149 72.039 29.474-29.474c-82.363-85.552-133.164-201.633-133.164-329.471 0-174.28 94.317-326.899 234.545-409.683l-53.31-53.31c-6.868-6.89-6.868-18.072 0-24.936 3.434-3.434 7.902-5.151 12.457-5.151 4.49 0 8.957 1.717 12.391 5.151l60.796 60.791c63.016-30.88 133.781-48.334 208.484-48.334 74.812 0 145.577 17.455 208.593 48.334l60.704-60.791c3.434-3.434 7.989-5.151 12.457-5.151 4.555 0 9.023 1.717 12.457 5.151 6.89 6.868 6.89 18.050 0 24.936l-53.288 53.31c140.229 82.784 234.545 235.404 234.545 409.683 0 127.837-50.822 243.919-133.185 329.475l29.496 29.469zM954.448 893.282c37.748-37.748 41.62-96.914 11.445-138.954l-150.377 150.377c42.040 30.174 101.119 26.39 138.932-11.423v0zM55.294 754.328c-30.174 42.040-26.324 101.202 11.423 138.954 37.835 37.813 96.914 41.598 138.954 11.423l-150.377-150.377zM510.539-11.132c-242.71 0-440.212 197.498-440.212 440.212 0 242.71 197.498 440.208 440.212 440.208 242.819 0 440.208-197.503 440.208-440.208 0-242.71-197.389-440.212-440.208-440.212v0zM860.662 632.325c-35.347 60.704-86.082 111.438-146.768 146.768-0.35 0.263-0.53 0.53-0.793 0.683-0.329 0.175-0.683 0.175-0.946 0.35-59.407 34.226-128.188 53.906-201.528 53.906s-142.208-19.675-201.528-53.906c-0.35-0.175-0.683-0.175-1.034-0.35-0.263-0.153-0.416-0.416-0.683-0.683-60.791-35.33-111.438-86.064-146.856-146.768-0.175-0.329-0.504-0.504-0.683-0.771-0.175-0.35-0.175-0.683-0.263-0.946-34.314-59.407-53.993-128.192-53.993-201.528 0-73.34 19.675-142.121 53.993-201.528 0.088-0.35 0.088-0.705 0.263-0.946 0.241-0.53 0.596-0.771 0.946-1.209 35.325-60.529 85.972-111.088 146.589-146.413 0.263-0.175 0.42-0.53 0.683-0.705 0.53-0.241 0.946-0.329 1.454-0.504 59.341-34.138 127.947-53.726 201.112-53.726s141.792 19.588 201.024 53.726c0.504 0.175 1.034 0.263 1.454 0.504 0.263 0.175 0.438 0.53 0.793 0.705 60.529 35.325 111.154 85.885 146.589 146.413 0.241 0.442 0.596 0.683 0.858 1.209 0.175 0.241 0.175 0.596 0.329 0.946 34.226 59.407 53.923 128.188 53.923 201.528s-19.702 142.121-53.923 201.528c-0.153 0.263-0.153 0.596-0.329 0.946-0.18 0.263-0.53 0.438-0.683 0.771v0zM710.285 118.356l-8.344 14.529c-4.91 8.432-15.65 11.336-24.082 6.447-8.432-4.91-11.27-15.65-6.447-24.077l8.432-14.616c-45.825-23.639-97.155-37.835-151.674-40.498v16.771c0 9.706-7.814 17.63-17.542 17.63-9.706 0-17.63-7.924-17.63-17.63v-16.771c-54.41 2.575-105.827 16.859-151.652 40.498l8.432 14.616c4.888 8.432 1.958 19.172-6.447 24.077-8.432 4.884-19.172 1.98-24.077-6.447l-8.344-14.529c-44.462 28.615-82.363 66.538-111 111l14.529 8.34c8.432 4.888 11.358 15.65 6.447 24.060-4.91 8.432-15.65 11.358-24.077 6.447l-14.529-8.432c-23.727 45.846-37.901 97.242-40.564 151.674h16.749c9.728 0 17.63 7.836 17.63 17.63 0 9.706-7.902 17.542-17.63 17.542h-16.749c2.575 54.497 16.749 105.827 40.476 151.652l14.616-8.41c2.751-1.651 5.769-2.335 8.782-2.335 6.097 0 12.041 3.101 15.3 8.782 4.818 8.41 1.98 19.172-6.447 24.060l-14.529 8.432c28.637 44.462 66.472 82.276 110.913 111l8.432-14.529c3.259-5.677 9.203-8.848 15.3-8.848 2.926 0 5.944 0.771 8.782 2.4 8.41 4.818 11.248 15.562 6.447 23.99l-8.432 14.616c45.825 23.727 97.155 37.923 151.586 40.498v-16.684c0-9.728 7.902-17.63 17.608-17.63 9.728 0 17.63 7.902 17.63 17.63v16.684c54.431-2.575 105.849-16.771 151.674-40.498l-8.432-14.616c-4.91-8.432-1.98-19.172 6.447-23.99 2.751-1.629 5.769-2.4 8.76-2.4 6.119 0 11.953 3.171 15.23 8.848l8.432 14.529c44.44-28.725 82.363-66.538 110.978-111l-14.529-8.432c-8.41-4.801-11.336-15.65-6.447-24.060 3.281-5.589 9.203-8.782 15.23-8.782 3.014 0 6.009 0.771 8.848 2.335l14.529 8.497c23.727-45.912 37.923-97.242 40.498-151.652h-16.684c-9.706 0-17.608-7.924-17.608-17.63 0-9.728 7.902-17.63 17.608-17.63h16.684c-2.575-54.431-16.771-105.827-40.498-151.674l-14.529 8.519c-8.519 4.818-19.259 1.892-24.082-6.447-4.884-8.497-1.958-19.259 6.447-24.077l14.529-8.41c-28.615-44.462-66.45-82.385-110.978-111v0z" />
</font>
</defs>
</svg>
